#TITLE:02;
#SUBTITLE:- Fat Bottomed Girls;
#ARTIST:Unknown artist;
#TITLETRANSLIT:;
#SUBTITLETRANSLIT:;
#ARTISTTRANSLIT:;
#CREDIT:;
#BANNER:02 - Fat Bottomed Girls.bn.PNG;
#BACKGROUND:02 - Fat Bottomed Girls.bg.PNG;
#LYRICSPATH:;
#CDTITLE:;
#MUSIC:02 - Fat Bottomed Girls.mp3;
#OFFSET:0.000;
#SAMPLESTART:100.000;
#SAMPLELENGTH:12.000;
#SELECTABLE:YES;
#BPMS:0.000=118.020,40.000=118.480,40.063=119.080,40.125=119.280,40.188=119.480,40.250=119.680,40.313=119.880,40.375=120.080,40.438=120.280,40.500=120.480,40.563=121.280,40.625=122.080,40.688=122.880,40.750=123.680,40.813=124.480,40.875=125.280,40.938=126.080,41.000=126.880,41.063=127.680,41.125=128.480,41.188=129.280,41.250=130.080,41.313=130.880,41.375=131.680,41.438=132.480,41.500=133.280,41.563=134.080,41.625=134.880,41.688=135.680,41.750=136.480,41.813=137.280,41.875=138.080,41.938=138.880,42.000=139.680,42.063=140.480,42.125=141.280,42.188=142.080,42.250=142.880,42.313=143.680,42.375=144.480,42.438=145.280,42.500=146.080,42.563=146.880,42.625=147.680,42.688=148.480,42.750=149.280,42.813=150.080,42.875=150.880,42.938=151.680,43.000=152.480,43.063=153.280,43.125=154.080,43.188=154.880,43.250=155.680,43.313=156.480,43.375=157.280,43.438=158.080,43.500=158.880,43.563=159.680,43.625=160.480,43.688=161.280,43.750=162.080,43.813=162.880,43.875=163.680,43.938=164.480,44.000=165.280,44.063=170.080,302.500=303.300;
#STOPS:;
#BGCHANGES:;
// cache tags:
#FIRSTBEAT:0.250;
#LASTBEAT:1022.042;
#SONGFILENAME:Songs/Music V.I.P ^_^/02  Fat Bottomed Girls/02 - Fat Bottomed Girls.sm;
#HASMUSIC:1;
#HASBANNER:1;
#MUSICLENGTH:256.600;
// end cache tags

//---------------dance-single - ----------------
#NOTES:
     dance-single:
     :
     Easy:
     6:
     0.474,0.797,0.320,0.694,0.000,591.000,82.000,178.000,0.000,3.000:
0000
0010
0000
0010
,
0000
0010
0010
0010
,
0010
0000
0000
0010
,
0000
0010
0000
0010
,
0010
0010
0010
0020
,
0000
0000
0030
0000
,
0010
0020
0030
0000
,
0010
0010
0010
0000
,
0010
1001
0100
1010
,
0001
0101
0000
2002
,
0000
3003
0000
0000
0000
0000
0000
0000
0000
0000
0000
0000
0000
0000
0000
0000
0000
0000
0000
0000
0000
0000
0000
0000
0000
0000
0000
0000
0000
0000
0000
0000
0000
0000
0000
0000
0000
0000
0000
0000
0000
0000
0000
0000
0000
0000
0000
0000
0000
0000
0000
0000
0000
0000
0000
0000
0000
0000
0000
0000
0000
0000
0000
0000
0000
0000
0000
0000
0000
0000
0000
0000
0000
0000
0000
0000
0000
0000
0000
0000
0000
0000
0000
0000
0000
0000
0000
0000
0000
0000
0000
0000
0000
0000
0000
0000
0000
0000
0000
0000
0000
0000
0000
0000
0000
0000
0000
0000
0000
0000
0000
0000
0000
0000
0000
0000
0000
0000
0000
0000
0000
0000
0000
0000
0000
0000
0000
0000
0000
0000
0000
0000
0000
0000
0000
0000
0000
0000
0000
0000
0000
0000
0000
0000
0000
0000
0000
0000
0000
0000
0000
0000
0000
0000
0000
0000
0000
0000
0000
0000
0000
0000
0000
0000
0000
0000
0000
0000
0000
0000
0000
0000
0000
0000
0000
0000
0000
0000
0000
0000
0000
0000
0000
0000
0000
0000
0000
0000
0000
0000
0000
0000
,
0000
0001
0000
0001
,
0000
0001
0000
0001
,
0000
0001
0000
0001
,
0001
0000
0001
0000
,
0001
0001
0001
0001
,
0001
0001
0001
0001
,
0001
0000
0000
2002
,
0000
0000
0000
3003
,
0001
0010
0001
0001
,
0000
0001
0001
0001
,
0011
0001
0011
0001
,
0022
0000
0033
0000
,
2000
3000
0020
0030
,
0200
0300
2002
3003
,
0000
0011
0100
0010
,
0001
0001
1000
0120
,
0030
0022
0000
0033
,
1000
0010
0010
0010
,
0020
0000
0030
0101
,
0001
1001
0001
1001
,
0011
0101
0110
0100
,
1001
0001
0110
0010
,
1001
0001
1100
0100
,
0011
0100
0110
0100
,
1001
0101
0001
1010
,
0001
1100
0100
0110
,
0001
0011
0100
1100
,
0100
1010
0010
0101
,
0000
1100
0110
0010
,
0101
0000
0000
0000
,
0000
0002
0000
2000
,
0003
3002
0000
2000
,
3003
0002
0000
1000
,
1000
0000
0003
1002
,
0000
1000
0000
1000
,
0003
0002
1000
1000
,
0003
0100
0010
0010
,
0001
1000
0200
0320
,
0032
2003
3200
0310
,
0100
0100
0100
0102
,
0000
0203
0000
0302
,
0003
0200
0300
1000
,
0011
0100
0010
0002
,
0003
0001
0001
0001
,
0001
0001
0001
0001
,
0001
0001
0001
0001
,
0001
0001
0001
0001
,
0001
0001
0001
0001
,
0001
0001
0001
0001
,
0001
0001
0001
1000
,
1001
0100
0000
0100
,
1100
0000
0022
0033
,
0220
0330
0000
0000
0000
0000
0000
0000
0000
0000
0000
0000
0000
0000
0000
0000
0000
0000
0000
0000
0000
0000
0000
0000
0000
0000
0000
0000
0000
0000
0000
0000
0000
0000
0000
0000
0000
0000
0000
0000
0000
0000
0000
0000
0000
0000
0000
0000
0000
0000
0000
0000
0000
0000
0000
0000
0000
0000
0000
0000
0000
0000
0000
0000
0000
0000
0000
0000
0000
0000
0000
0000
0001
0000
0000
0000
0000
0000
0000
0000
0000
0000
0000
0000
0000
0000
0000
0000
0000
0000
0000
0000
0000
0000
0000
0000
0000
0000
0000
0000
0000
0000
0000
0000
0000
0000
0000
0000
0000
0000
0000
0000
0000
0000
0000
0000
0000
0000
0000
0000
0000
0000
0000
0000
0000
0000
0000
0000
0000
0000
0000
0000
0000
0000
0000
0000
0000
0000
0000
0000
0000
0000
0000
0000
0000
0000
0000
0000
0000
0000
0000
0000
0000
0000
0000
0000
0000
0000
0000
0000
0000
0000
0000
0000
0000
0000
0000
0000
0001
0000
0000
0000
0000
0000
0000
0000
0000
0000
0000
0000
0000
0000
0000
0000
0000
0000
0000
0000
0000
0000
0000
0000
,
0000
0000
0000
0001
0000
0001
0000
0001
,
0000
0000
0000
0001
1000
0001
1000
0000
,
0100
2000
0000
3000
,
0000
0001
0000
0000
0000
0001
0000
0000
,
0000
1001
0000
0000
0000
0001
0000
0001
,
0001
0000
0000
0000
1000
1001
1000
0000
,
0200
0300
0010
0000
0001
0000
0010
0100
,
0010
0100
0010
0001
1000
0100
0010
1001
,
0100
0100
1100
0100
0000
0100
0000
1100
,
0100
1100
0000
0100
0100
1100
0000
0200
,
0000
0000
0000
0000
,
0000
0000
0000
0000
0300
0002
0000
0000
,
0000
0000
0000
0000
,
0000
0000
0000
0000
,
0000
1003
0200
0000
,
1300
0000
0010
0000
0100
0000
0000
0002
,
0000
0000
0000
2003
0000
0002
0000
0000
,
0000
0000
0000
0000
,
0000
3003
0000
0000
0000
0000
0000
0000
0000
0000
0000
0000
0000
0000
0000
0000
0000
0000
0000
0000
0000
0000
0000
0000
0000
0000
0000
0000
0000
0000
0000
0000
0000
0000
0000
0000
0000
0000
0000
0000
0000
0000
0000
0000
0000
0000
0000
0000
0000
0000
0000
0000
0000
0000
0000
0000
0000
0000
0000
0000
0000
0000
0000
0000
0000
0000
0000
0000
0000
0000
0000
0000
0000
0000
0000
0000
0000
0000
0000
0000
0000
0000
0000
0000
0000
0000
0000
0000
0000
0000
0000
0000
0000
0000
0000
0000
0000
0000
0000
0000
0000
0000
0000
0000
0000
0000
0000
0000
0000
0000
0000
0000
0000
0000
0000
0000
0000
0000
0000
0000
0000
0000
0000
0000
0000
0000
0000
0000
0000
0000
0000
0000
0000
0000
0000
0000
0000
0000
0000
0000
0000
0000
0000
0000
0010
0000
0000
0000
0000
0000
0000
0000
0000
0000
0000
0000
0000
0000
0000
0000
0000
0000
0000
0000
0000
0000
0000
0000
0000
0000
0000
0000
0000
0000
0000
0000
0000
0000
0000
0000
0000
0000
0000
0000
0000
0000
0000
0000
0000
0000
0000
0000
,
0000
0010
2000
0000
,
0000
0000
0000
0000
,
0000
0000
3001
0020
0000
0000
0000
0030
,
0200
0000
0000
0020
0300
0000
0000
0032
,
0000
0000
0000
1003
0000
0000
2002
0000
,
0000
0000
0000
0000
,
0000
3003
0000
2002
0000
0000
0000
0000
,
0000
0000
0000
0000
,
0000
0000
0000
0000
0000
0000
3000
0003
,
1000
0000
0200
0000
0000
0300
0010
0002
,
0000
0000
0003
1000
0000
0100
0000
0000
,
0010
0000
0001
0000
,
1101
0000
0000
0011
0000
0011
0000
0000
,
0000
0220
0000
0000
0000
0000
0332
0000
,
0000
1000
2003
0000
0000
3020
0000
0000
,
0130
0000
0002
0000
0000
0000
2000
0003
,
0000
0000
0200
3000
0000
0000
0020
0000
,
0000
0000
0000
0000
,
0000
0000
0000
0000
,
0000
0000
0000
0000
0330
0001
0000
0000
,
0000
0002
2000
0000
0003
0000
3200
0000
,
0010
0320
0000
0000
0031
0000
0000
0020
,
0000
0200
0000
0030
0000
0000
2000
0300
,
0000
0000
0002
3000
0000
2000
0000
0000
,
0000
0000
0000
0000
,
0000
0000
0000
0000
,
0000
0000
0000
0000
0000
0000
0000
3003
,
0000
0000
0000
0000
,
0000
0000
0000
0000
,
0000
0000
0000
0000
,
0000
0000
0000
0000
,
0000
0000
0000
0000
,
0000
0000
0000
0000
,
0000
0000
0000
0000
,
0000
0000
0001
0000
,
0000
0000
0001
0000
0000
0000
0000
0002
,
0000
0000
0000
2000
,
0000
0000
0000
0003
3000
0000
0001
0000
,
0002
0000
0000
0000
,
2000
0000
0000
0000
0000
0003
0000
0000
,
3000
0200
0000
0000
0000
0000
0000
0000
,
0300
0000
0010
0001
0000
1000
0000
0100
,
0010
0000
0001
0000
1000
0100
0000
0100
,
0100
1000
0010
0100
,
0000
0000
0002
0000
2000
0103
0000
0000
,
0000
0200
3000
0000
2000
0300
0000
0000
,
3010
0000
0000
0101
0000
0002
0000
0000
,
0000
2000
0003
3200
,
0000
0020
0300
0000
0000
0000
0030
0000
,
0001
0010
0000
0000
0001
0000
0000
1000
,
0000
0100
0010
0000
0100
0000
0010
0000
,
0001
0000
1000
0000
0100
0010
0000
0001
,
0000
1000
0000
0100
0100
0000
0100
0100
,
0000
0100
0000
0000
1000
0000
0010
0100
,
0000
0001
0000
1000
0000
0001
0010
0000
,
0100
0000
0010
0000
0100
0010
0000
0001
,
0000
0001
0001
0000
0002
0000
0000
0003
,
1000
0001
0000
0010
0100
0000
0010
0000
,
0001
0010
0100
0010
,
0001
1000
0000
0100
0010
0000
0001
0001
,
0000
0001
1000
0000
0100
0010
0000
0001
,
0000
1000
0100
0000
0010
0001
0000
0010
,
0000
0100
0000
0100
0100
0000
0200
0000
,
0000
2000
0000
0300
0020
3000
0000
0000
,
0230
0000
0000
0002
0300
0000
2003
0000
,
0000
0200
3000
0000
0020
0300
0000
0000
,
0032
0000
0000
2003
0000
0000
0100
0000
,
3000
2002
0000
0000
,
0000
0000
0000
0000
,
0000
0000
0000
0000
,
0000
0000
0000
0000
0000
3003
0000
2002
,
0000
0000
0000
0000
,
0000
3003
0000
2002
0000
0000
0000
0000
,
0000
3003
0000
0001
0002
0000
0000
0000
,
0013
0200
0000
0320
,
0000
0031
0000
0000
0010
0000
0001
0010
,
0000
0000
0000
0100
1000
0000
0100
0010
,
0000
0001
0000
0010
0100
0000
1000
0010
,
0000
0100
0001
0000
0001
0000
0001
1000
,
0000
0001
0000
0001
0000
0001
0000
2000
,
0000
3200
0000
1300
,
0010
0000
0000
0010
0000
0000
0000
0010
,
0000
0010
0000
0010
0010
0000
0000
0000
,
2002
0000
0000
0000
,
0000
0000
0000
0000
0003
3000
0001
1001
,
0000
0000
1001
1000
0000
0001
1001
0000
,
0000
1001
0000
0000
0000
0000
0000
0000
,
0000
0000
0000
0001
,
1000
0000
0200
0000
0000
0000
0020
0300
,
0000
0100
0030
0000
0100
0000
0000
1001
,
0000
0000
0000
0001
0000
0000
0010
0001
,
0002
0000
0000
0000
0000
2000
0000
0000
,
0003
0000
3200
0000
0000
1300
0000
0010
,
0100
0000
0001
0000
1000
0000
0000
0100
,
0010
0000
0001
0100
0010
0000
0100
0000
,
0020
0002
0000
0030
0020
0000
0000
0000
,
0000
0000
0000
0000
,
0000
0000
0000
0033
,
0001
2000
0000
0000
3200
0000
0000
0000
,
0000
0320
0000
0000
0032
0000
0000
0000
,
1003
0000
0000
0100
0020
0000
0000
0000
,
0000
0230
0000
0000
0000
1000
0000
0300
,
2000
0002
0000
0000
0000
0000
0000
0000
,
0000
0000
0000
0000
,
0000
0000
0000
0000
,
3003
0000
0000
0000
,
0000
0000
0000
0000
,
0000
0000
0000
0000
,
0000
0000
1001
0000
,
0000
1001
0000
0000
1001
0000
0000
0000
,
1001
0000
0000
0000
0001
1000
0000
0001
,
0000
0010
0000
0001
0010
0001
0000
0010
,
0000
0000
0100
0010
0100
0010
0000
0000
,
0001
1000
0001
1000
0000
0000
0000
0001
,
0010
0000
0001
0000
0000
0010
0000
0100
,
0010
0000
0000
0000
0001
0000
0001
0002
,
0000
0000
0000
0000
0000
0000
0000
0000
0000
0000
0000
0000
0000
0000
0000
0000
0000
0000
0000
0000
0000
0000
0000
0000
0000
0003
0000
0000
0000
0000
0000
0000
0000
0000
0000
0000
0000
0000
0000
0000
0000
0000
0000
0000
0000
0000
0000
0000
0000
0000
0000
0000
0000
0000
0000
0000
0000
0000
0000
0000
0000
0000
0000
0000
0000
0000
0000
0000
0000
0000
0000
0000
0000
0000
0000
0000
0000
0000
0000
0000
0000
0000
0000
0000
0000
0000
0000
0000
0000
0000
0000
0000
0000
0000
0000
0000
0000
0000
0000
0000
0000
0000
0000
0000
0000
0000
0000
0000
0000
0000
0000
0000
0000
0000
0000
0000
0000
0000
0000
0000
0000
0000
0000
0000
0000
0000
0000
0000
0000
0000
0000
0000
0000
0000
0000
0000
0000
0000
0000
0000
0000
0000
0000
0000
0000
0000
0000
0000
0000
0000
0000
0000
0000
0000
0000
0000
0000
0000
0000
0000
0000
0000
0000
0000
0000
0000
0000
0000
0000
0000
0000
0000
0000
0000
0000
0000
0000
0000
0000
0000
0000
0000
0000
0000
0000
0000
0000
0000
0000
0000
0000
0000
,
0000
0000
0000
0000
,
0000
0000
0000
0000
,
0000
0000
0001
0000
0000
1000
0000
0000
,
0000
0100
0100
0000
0200
0000
0000
2000
,
0000
0300
0020
3000
0000
0000
0000
0000
,
0000
0000
0000
0000
,
0000
1000
0000
0000
,
0000
2000
0000
3000
,
2000
0000
0000
0000
3000
0000
0000
1000
,
0000
0000
0000
1000
0030
0001
0000
0200
,
0000
0000
0000
0020
0000
0000
0000
0300
,
0000
0000
0000
2000
0000
0000
0000
0030
,
0000
0000
0002
3000
0000
0100
0003
0000
,
0010
2000
0000
0002
,
0000
0000
0000
0000
,
0000
0000
0000
0000
0000
3003
0000
1001
,
0000
0000
1001
0000
1001
0000
0000
2002
,
0000
0000
0000
0000
,
0000
0000
0000
0000
,
0000
0000
0000
0000
,
0000
0000
0000
0000
,
0000
0000
0000
0000
,
0000
0000
0000
3003
0000
0000
0002
0000
,
0000
0000
0000
0000
0000
2000
0000
0000
,
0000
0003
0000
0000
0200
3000
0000
0000
,
0000
0000
0000
0020
0000
0000
0300
0000
,
0000
0002
0000
0000
0000
0030
0000
0003
,
1000
0001
0000
1000
0000
0001
0000
0001
,
0001
0000
0001
0000
0001
0001
0000
0001
,
0001
0000
0001
0001
0000
0001
0000
0001
,
0000
0000
0002
2000
0000
0000
0000
0000
,
0000
0000
0000
0000
,
0000
0000
0000
0000
,
0000
0000
0000
3003
0000
2002
0000
0000
,
0000
0000
3003
2002
0000
0000
0000
0000
,
3003
2002
0000
0000
0000
0000
3003
0000
,
2002
0000
0000
0000
0000
0000
3003
2002
,
0000
0000
0000
0000
3003
2000
0002
0000
,
0000
0000
3003
2000
0002
0000
0000
0000
,
0000
3003
0000
2002
0000
0000
0000
3003
,
2002
0000
0000
0000
0000
3003
0000
2001
,
0002
0000
0000
0000
0003
0002
3000
0000
,
0000
0000
2000
0003
0000
0002
3000
0000
,
1000
0003
0000
0001
0000
1000
0000
0001
,
0010
0000
0000
0100
0010
0000
0001
0000
,
0001
0001
0000
1000
0001
0000
0001
0000
,
0001
0000
0010
0000
0000
0001
0000
1000
,
0000
0100
0010
0000
0001
0000
0010
0000
,
0100
0000
0100
0200
0000
0000
2000
0300
,
0000
0000
0000
0000
0000
0000
0000
0000
0000
0000
0000
0000
0000
0000
0000
0000
0000
0000
0000
0000
0000
0000
0000
0000
0002
3003
0000
0000
0000
0000
0000
0000
0000
0000
0000
0000
0000
0000
0000
0000
0000
0000
0000
0000
0000
0000
0000
0000
0000
0000
0000
0000
0000
0000
0000
0000
0000
0000
0000
0000
0000
0000
0000
0000
0000
0000
0000
0000
0000
0000
0000
0000
0000
0000
0000
0000
0000
0000
0000
0000
0000
0000
0000
0000
0000
0000
0000
0000
0000
0000
0000
0000
0000
0000
0000
0000
0000
0000
0000
0000
0000
0000
0000
0000
0000
0000
0000
0000
0000
0000
0000
0000
0000
0000
0000
0000
0000
0000
0000
0000
0000
0000
0000
0000
0000
0000
0000
0000
0000
0000
0000
0000
0000
0000
0000
0000
0000
0000
0000
0000
0000
0000
0000
0000
0000
0000
0000
0000
0000
0000
0000
0000
0000
0000
0000
0000
0000
0000
0000
0000
0000
0000
0000
0000
0000
0000
0000
0000
0000
0000
0000
0000
0000
0000
0000
0000
0000
0000
0000
0000
0000
0000
0000
0000
0000
0000
0000
0000
0000
0000
0000
0000
,
0000
0002
0000
0000
,
0000
0000
2000
0000
,
0000
0003
0000
0000
,
0000
0002
0000
0000
,
0000
0000
0000
0000
,
0000
3000
0003
0000
;

//---------------dance-single - Copied from----------------
#NOTES:
     dance-single:
     Copied from:
     Medium:
     8:
     0.657,1.000,0.503,0.694,0.000,871.000,129.000,178.000,0.000,6.000:
0000
0010
0010
0010
0010
0010
0010
0010
,
0010
0000
0010
1000
0011
0100
0010
0001
,
0001
0001
0001
1001
0010
0100
0010
0001
,
0110
0010
0100
0000
0100
1000
0001
0010
,
0000
0100
0010
0000
0002
2013
0000
0200
,
0000
0000
0302
0000
,
0000
0000
0000
0003
3010
0200
0000
2301
,
0000
3100
0020
0031
0000
0100
0100
0100
,
0100
0000
0200
0000
2300
3010
0002
0000
,
0100
0000
2003
0000
3200
2000
0000
0000
,
0000
0000
0000
0000
,
3300
0100
0100
0100
0100
0100
0100
0100
,
0100
0100
0100
0101
0100
0100
0100
0200
,
0000
1300
0100
1000
0001
0010
0100
0010
,
0001
0010
0100
0010
0011
0000
0100
0110
,
0100
0100
0010
0001
0001
1001
0001
0000
,
0001
0010
0100
0020
0002
0000
0030
0000
,
0000
0000
0000
2000
0000
0000
0000
0000
,
0000
0000
3003
0000
0000
0000
0000
1001
,
0000
0001
0000
1001
0000
0001
0000
1001
,
0000
0001
0000
1001
0000
0001
0000
1001
,
0000
0001
0000
0011
0001
0000
1100
0000
,
0100
1100
0100
1100
0100
0100
1100
0100
,
0000
0011
0010
0100
1000
0001
0010
0100
,
0010
0001
1000
0100
0100
0100
0010
0001
,
0001
1000
0010
0010
0100
0001
0001
1001
,
0010
0100
0010
0001
1000
0010
0100
0002
,
0000
2000
0000
0000
0000
3003
1001
0000
,
0000
0011
0000
0220
0000
0330
1001
0100
,
0010
1202
0000
0000
0303
1000
0001
0011
,
0000
0110
0000
0011
0000
0110
0000
0011
,
0000
0200
0000
0310
0001
0020
0000
0200
,
0000
0000
0000
0000
,
0000
0000
0000
0000
0000
0330
0001
1000
,
0010
0100
0001
1000
0110
0001
0001
0001
,
0001
0010
0001
0001
1000
0100
0010
0100
,
0010
0001
1000
0110
0001
0010
0100
0010
,
0001
0010
0100
0010
0001
1000
0100
0010
,
0001
0010
0100
0010
1001
0000
0100
0010
,
0001
0010
0100
0020
0002
0000
0000
0000
,
0000
0000
0000
0000
,
0000
0000
0000
0033
1001
0000
0001
0000
,
1001
0000
0001
1001
0000
0001
0000
1001
,
0001
1001
0001
1001
0001
0001
0001
0001
,
0001
0001
0010
0001
0011
0010
0000
0001
,
0000
0011
0011
0011
0011
0011
0011
0011
,
0011
0000
0001
1000
0110
0001
0010
0100
,
0000
0000
0100
0200
0000
0000
0300
0200
,
0000
0300
0100
0100
0000
0100
0100
0000
,
0100
0100
0100
0000
1100
0001
0010
0001
,
0010
0000
0100
0010
0001
0010
0000
0100
,
0100
0100
0100
0100
0100
0100
0100
0000
,
0100
0000
0100
0000
0100
0200
0000
0000
,
0000
2000
0000
0000
0300
0002
0000
3000
,
2003
0000
0000
3000
0000
0020
0000
0000
,
0001
0000
0100
0000
,
0001
0000
0000
0130
0000
0100
0000
1000
,
0010
0000
0100
0001
0001
0001
1000
0001
,
0001
0010
0001
0000
0001
1000
0001
0000
,
1000
0000
0100
0100
1000
0001
0001
0010
,
0001
0001
0001
1001
0001
0000
0101
0001
,
0001
1000
0001
0001
0001
1000
0020
1000
,
0030
0002
0000
0203
0000
0302
0000
0003
,
0000
0200
2000
0300
3002
0000
0023
0000
,
0100
0000
0100
0000
0031
2000
0000
3100
,
1200
0000
0020
0300
0001
0030
1000
0000
,
0200
0020
0000
0000
0000
0000
0000
0000
,
0000
0000
0000
0000
0000
0000
0000
0330
,
0000
0002
2000
0003
0000
3100
0010
0002
,
0000
0000
0023
0130
,
2000
3020
0000
0000
0230
0300
0002
2000
,
0000
0003
0000
3200
0000
0310
0001
0010
,
0000
0200
0000
0310
0002
0000
0000
0023
,
0200
0030
2000
0300
0020
3000
0200
0000
,
0000
0000
0000
0000
,
0000
0000
0000
0000
0000
0330
0010
1000
,
0000
0020
0000
0000
0000
0031
0010
0000
,
0100
0000
0010
0000
0110
0100
0010
0000
,
0001
0000
1000
0100
0000
0010
0001
0000
,
0010
0001
0010
0001
0000
1000
0000
0100
,
0010
0000
0001
0000
0010
0000
0110
0100
,
0010
0100
0010
0000
0001
1000
0000
0100
,
0010
0001
0000
0010
0000
0001
0010
0011
,
0000
0001
0000
1000
0000
0010
0100
0001
,
0000
1000
0001
0010
0001
0000
0010
0000
,
0100
0010
0000
0001
1000
0000
0100
0000
,
0010
0100
0010
0000
0001
0010
0000
0001
,
1000
0000
0100
0000
0010
0001
0010
0001
,
0010
0000
0100
1000
0010
0000
0100
0001
,
0000
1000
0001
0010
0001
0010
0001
0010
,
0001
0010
0011
0001
0010
0001
0010
0001
,
0010
0000
0100
0000
1000
0010
0000
0100
,
0000
0001
1000
0000
0001
0000
0001
0001
,
0000
0001
1000
0000
0000
0010
0000
0000
,
0000
0010
0000
0000
0010
0000
0000
1001
,
0000
0000
0001
0000
0000
0101
0000
0000
,
0000
1002
0000
0000
0003
0000
0011
0000
,
0000
0100
0000
0000
0001
0000
0000
0000
,
0110
0110
0000
0000
0000
0022
0000
0000
,
0000
0033
2100
0001
0000
3000
0022
0000
,
0000
0000
0000
0000
,
0000
0000
0000
0000
,
0000
0000
0000
0000
0003
0031
0000
0011
,
0000
0000
0021
0000
0000
0032
0000
0000
,
0000
1003
0000
0000
0020
0000
0000
0000
,
0230
0000
0002
0300
0000
0000
2000
0000
,
0003
0000
0000
3200
0000
0000
0020
0000
,
0000
0000
0000
0000
,
0000
0000
0000
0000
,
0000
0000
0000
0000
,
0330
0000
0000
0000
,
0000
0000
0000
0000
,
0000
0000
0000
0000
,
0000
0000
0000
0000
,
0000
0000
0000
0000
,
0000
2002
0000
0000
0000
0000
3003
0000
,
1001
0000
0000
0111
0000
0000
0110
0000
,
0000
0001
0010
0000
0000
1100
0000
0000
,
0011
0000
0000
0110
0000
0000
0001
1000
,
0000
0100
0010
0000
0011
0000
0000
1100
,
0000
0000
0010
0000
0000
1010
0000
0000
,
0020
0000
0000
0000
,
0000
2000
0000
0000
0000
0000
0000
0000
,
0000
0000
0000
0000
0000
0030
3000
0001
,
0000
0100
0001
0000
1000
0000
0001
0010
,
0000
0001
0010
0000
0100
0010
0000
0001
,
0010
0000
0100
0000
0010
0001
0000
0010
,
0100
0000
0010
0000
0001
0001
0000
0001
,
0000
0001
1000
0000
0001
0010
0000
0001
,
0020
0000
0000
0030
0200
0020
0000
0000
,
0300
0002
0030
0000
0000
2003
0000
0200
,
0000
0000
0000
0000
0000
0300
0000
3000
,
0001
0000
0000
0020
0000
0000
0030
0200
,
0000
0000
0000
0320
0000
0000
0032
0000
,
0000
0020
0003
0000
0000
0230
0000
0000
,
2000
0300
0000
0000
3002
0000
0000
0023
,
0000
0000
0200
0030
0000
0000
0000
0000
,
0000
0000
0000
0000
,
0000
0000
0000
0000
,
0000
0000
0010
0000
0000
0020
0300
0000
,
0001
0030
0000
1000
0000
0000
0200
0000
,
0000
0000
0020
0300
0000
0000
0031
0000
,
0000
0020
0000
0000
0000
0130
0000
0010
,
0000
0000
0002
0000
0000
0000
0010
0023
,
0000
0130
0000
0010
,
0000
0002
0000
0000
0020
0003
0000
0000
,
0230
0000
0000
0000
0310
0000
0000
0001
,
0000
0000
0020
0000
0000
0200
0030
0000
,
0000
0010
0300
0000
0002
0000
0000
0020
,
0003
0000
0000
0230
0000
0000
0000
1300
,
2000
0020
0000
0000
0000
0000
0000
0000
,
0000
0000
0000
0000
0000
0000
0030
3000
,
0010
1010
0000
0010
1000
0010
1010
1000
,
0010
1000
0010
1000
0000
0000
0002
0000
,
0000
0000
0013
0000
0000
0001
0010
0000
,
0100
0000
0010
0000
0001
1000
0000
0100
,
0010
0000
0001
0010
0000
0100
1000
0000
,
0100
0010
0000
0010
0000
0001
1000
0000
,
0100
0000
0010
0001
0000
0010
0001
0010
,
0000
0001
0000
1000
0010
0000
0100
0000
,
0001
0000
1000
0001
0010
0011
0000
0100
,
0000
1000
0001
0000
0010
0100
0000
0010
,
0100
0010
0000
0000
0001
1000
0000
0100
,
0000
0010
0001
0000
0010
0001
0010
0000
,
0100
1000
0000
0010
0100
0000
0001
0000
,
0100
0000
0001
0000
0100
0101
0000
0001
,
0000
1000
0000
0100
0010
0000
0001
0000
,
0010
0011
0100
1000
0001
0010
0100
0010
,
0002
0000
0000
1003
0000
0100
0010
0000
,
0001
0010
0000
0100
0000
0010
0000
0001
,
0010
0000
0100
0010
0100
0000
1000
0010
,
0000
0100
0001
0000
1000
0000
0001
0000
,
0010
0001
0000
0010
0100
0000
2000
0000
,
0010
3000
0000
0101
0000
0000
0000
1001
,
0000
0022
0000
0000
0033
0220
0000
0000
,
0330
0011
0000
0000
0000
1100
0000
0000
,
0011
0000
0000
0000
0110
0110
0000
0000
,
0000
0012
0000
0000
0003
0000
1100
0000
,
0000
0022
0000
0000
,
0000
0000
0000
0000
,
0000
0000
0000
0000
0003
0030
1001
1001
,
0000
0000
0110
0000
0000
0011
0000
0000
,
0000
0200
0000
0000
2000
0300
0000
0000
,
3020
0000
0000
0230
0000
0002
0300
0000
,
0000
2000
0003
0000
0000
0200
3000
0000
,
0000
2000
0000
0000
0000
0000
0000
0000
,
0000
0000
0000
0000
,
0000
0000
0000
0000
,
0000
0000
0000
0000
,
0000
0000
0000
0000
,
0000
0000
0000
0000
,
0000
0000
0000
0000
0000
0000
0000
3000
,
0300
2002
0000
0000
0000
0000
3000
0003
,
0022
0000
0000
0000
0000
0000
0033
0220
,
0000
0000
0000
0330
0000
0022
0000
0000
,
0000
0000
0030
0003
0220
0000
0000
0000
,
0000
0330
0000
2200
0000
0000
0000
0000
,
3300
0011
0000
0000
0000
0100
0010
0000
,
0000
0011
0000
0100
1000
0000
0011
0000
,
0000
0000
0110
0000
0000
0011
0000
0011
,
0011
0000
0000
0000
0100
0000
0000
1000
,
0000
0000
0001
0010
0000
0000
0000
0001
,
0000
0010
0000
0100
0000
0010
0000
0001
,
0010
0100
0100
0200
,
0000
0000
0000
0000
,
0000
0000
0000
0000
,
0000
0000
0000
0000
,
0000
0000
0000
0000
,
0000
0000
0000
0000
,
0000
0000
0300
0010
0000
0000
0010
0000
,
0010
0000
0000
0010
0000
1000
0001
0000
,
0010
0100
0000
0010
0000
0001
0010
0011
,
0000
0100
0000
1000
0001
0000
0010
0100
,
0010
0100
0010
0000
0001
0000
1000
0100
,
0000
0010
0001
0000
0011
0010
0000
0100
,
0000
1000
0001
0010
0001
0000
0010
0100
,
0000
0010
0000
0001
0020
0000
0000
0000
,
0200
0000
0000
0000
,
0000
0000
0000
0000
,
0000
0000
0000
0000
,
0000
0000
0000
0000
,
0000
0000
0000
0000
,
0000
0000
0030
0300
0010
0100
0000
0110
,
0000
0110
0000
0100
0000
0010
0001
0000
,
1000
0100
0000
0010
0001
0000
0010
0000
,
0100
0010
0000
0001
0010
0000
0100
1000
,
0000
0010
0000
0100
0000
0001
1000
0000
,
0100
0000
0010
0000
0001
0000
0010
0100
,
0010
0000
0001
0000
0001
0001
0000
0001
,
1000
0001
0000
0010
0000
0100
0000
0020
,
0000
0002
0000
0000
,
0000
0000
0000
0000
,
0000
0000
0000
0000
,
0000
0000
0030
0003
2002
0000
0000
0000
,
0000
3003
0000
0022
0000
0000
0000
0033
,
0000
0000
0220
0000
0000
0000
0300
0030
,
0022
0000
0000
0000
0003
0030
0000
0220
,
0000
0000
0330
2200
,
0000
3300
0022
0000
,
0000
0033
0000
0220
0000
0000
0000
0330
,
0000
0002
0020
0000
0003
0030
0000
0220
,
0000
0000
0000
0000
0000
0330
0002
0020
,
0000
0000
0000
0000
0033
0000
2000
0200
,
0000
0000
3300
0010
0001
0000
0000
0110
,
0000
0000
0011
0000
0000
1000
0100
0000
,
0010
0001
0000
0010
0100
0000
0000
1001
,
0000
0000
0000
0001
0000
1000
0000
0001
,
0010
0000
0100
0000
0010
0000
0001
1000
,
0000
0100
0010
0000
0001
0010
0000
0100
,
0000
0010
0001
0000
1000
0001
0000
0001
,
0001
0000
1000
0001
0000
0002
0000
0000
,
0000
0000
0000
0000
0000
2000
0000
0000
,
0000
0000
0000
0000
,
0000
0200
0000
0000
0000
0000
0000
0000
,
0000
0000
0000
0000
,
0000
0000
0000
0000
0000
0000
0000
0000
0000
0000
0000
0000
0000
0000
0000
0000
0000
0000
0000
0000
0000
0000
0000
0000
0000
0000
0000
0000
0000
0000
0000
0000
0000
0000
0000
0000
0000
0000
0000
0000
0000
0000
0000
0000
0000
0000
0000
0000
0000
0000
0000
0000
0000
0000
0000
0000
0000
0000
0000
0000
0000
0000
0000
0000
0000
0000
0000
0000
0000
0000
0000
0000
0000
0000
0000
0000
0000
0000
0000
0000
0000
0000
0000
0000
0000
0000
0000
0000
0000
0000
0000
0000
0000
0000
0000
0000
0000
3303
0000
0000
0000
0000
0000
0000
0000
0000
0000
0000
0000
0000
0000
0000
0000
0000
0000
0000
0000
0000
0000
0000
0000
0000
0000
0000
0000
0000
0000
0000
0000
0000
0000
0000
0000
0000
0000
0000
0000
0000
0000
0000
0000
0000
0000
0000
0000
0000
0000
0000
0000
0000
0000
0000
0000
0000
0000
0000
0000
0000
0000
0000
0000
0000
0000
0000
0000
0000
0000
0000
0000
0000
0000
0000
0000
0000
0000
0000
0000
0000
0000
0000
0000
0000
0000
0000
0000
0000
0000
0000
0000
0000
0000
0000
;

//---------------dance-single - ----------------
#NOTES:
     dance-single:
     :
     Hard:
     10:
     0.718,1.000,0.300,1.000,0.939,934.000,77.000,273.000,0.000,19.000:
0000
0010
1000
1010
0010
1000
0010
1000
0000
0000
0000
0000
0000
0000
0000
0000
,
0001
0000
0000
0001
0000
0000
0001
0000
0002
0000
2000
0000
0003
3100
0000
0000
,
0100
0000
2200
0000
0000
0000
0000
0000
0000
0000
0000
0300
0002
3000
0000
0000
,
0000
0000
0000
0000
0000
0000
0000
0000
0000
0000
0000
0000
0000
0003
0100
0002
,
0000
0000
2003
0000
0000
0000
3020
0000
0000
0230
0000
0000
0301
0000
1000
0001
,
0010
0000
0001
0010
0000
0100
0010
0001
0000
0002
2000
0000
0000
0000
0000
0000
,
0000
0000
0000
0000
0000
0000
0000
0003
3000
0002
0020
0003
0030
0100
0020
0000
,
0000
0031
0000
2000
0000
0000
3100
0200
0000
0000
0310
0000
0002
0000
0000
0003
,
1001
1001
0000
0000
0022
0000
0000
0033
0110
0000
0011
0000
0000
1100
0000
0011
,
0001
0010
0000
0100
0010
0000
0000
2001
0000
0000
0000
3002
0000
0000
0000
0000
,
0000
0000
0000
0000
,
0000
1000
0000
0000
0000
0000
0000
0003
0001
0000
0000
2000
0000
0000
3000
0200
,
0000
0000
0020
0300
0000
0000
0031
0000
0000
0000
0020
0000
0000
0230
0000
0000
,
0300
0020
0000
0000
0030
0002
0000
0000
0020
0000
0003
0000
0230
0000
0000
0000
,
0000
1300
0000
0002
0000
0000
0000
0023
0000
0000
0000
0230
0000
0000
0000
0000
,
0020
0300
0000
0000
0001
0030
0000
0000
2000
0000
0000
3200
0000
0000
0020
0300
,
0000
0000
0031
0000
0020
0000
0000
0000
0030
0100
0000
1000
0000
0000
0002
0000
,
0000
0000
0020
0000
0003
0000
0032
0000
0000
0000
0013
0000
0000
0100
0000
0000
,
1000
0000
0000
0000
0010
0000
0000
0000
0010
0000
0010
0010
0000
0000
0000
1000
,
0000
0000
0001
0000
0000
0000
0011
0000
0010
0000
0100
0000
1000
0010
0000
0000
,
0100
0001
0000
1000
0000
0001
0010
0001
0000
0010
0000
0100
0000
0010
0000
0001
,
1000
0000
0100
0010
0100
0010
0000
0001
0000
1000
0000
0100
0000
0010
0001
0010
,
0001
0010
0001
0011
0010
0001
0010
0001
0010
0001
0010
0001
0000
0000
1000
0000
,
0000
0200
0000
0000
0310
0000
0000
0001
0000
0000
0000
0010
0000
0000
0200
0000
,
0000
0000
2000
0300
0000
0001
3000
0000
1000
0000
0000
0200
0000
0000
2000
0300
,
0000
0000
3001
0000
0000
2000
0000
0000
0000
3100
0000
0000
2000
0000
0000
0000
,
0002
3000
0000
0000
2003
0000
0000
3000
0200
0000
0000
0000
0000
0010
0300
0000
,
0001
0000
0000
0000
1000
0000
0000
0200
0000
0000
0310
0000
0000
0000
0001
0000
,
0010
0000
0000
0000
0000
0200
0020
0000
0000
0300
0000
0001
0030
0000
1000
0000
,
0000
0000
0100
0000
0000
0020
0000
0000
0002
0030
0000
0000
0003
0000
0010
0000
,
0000
0200
0000
0000
0000
0000
2300
0000
0000
3000
0020
0000
0000
0000
0200
0000
,
0030
0000
0000
0301
0000
0000
2000
0000
0000
0000
0000
0200
3000
0000
0000
0000
,
0000
0320
0000
0000
0000
0002
0000
0030
0000
0020
0000
0003
0000
0230
0000
0000
,
1300
0000
0000
0000
0010
0010
0000
0010
0000
1000
0000
0001
0000
0100
0000
0001
,
0000
1000
0000
0100
0000
0010
0000
0001
0000
0010
0000
0200
0000
0000
0020
0000
,
0000
0300
0002
0000
0000
0000
0030
1000
0003
0000
0000
0100
0000
0010
0000
0000
,
0000
0000
0001
0000
0010
0000
0000
0200
0000
0010
0300
0000
0002
0000
2000
0000
,
0000
0000
0003
0000
3200
0000
0000
0000
2000
0300
0000
0000
3020
0000
0000
0000
,
0200
0030
0000
0000
0002
0300
2000
0000
0003
0000
0100
3000
0000
0020
0000
0000
,
0000
0030
0001
0000
0020
0000
0000
0000
0200
0000
0000
0000
0000
0000
0000
0000
,
0000
0000
0000
0000
,
0300
0030
1000
0001
0000
0000
0000
0011
0000
0000
0011
0000
0011
0000
0000
0000
,
0000
0000
0110
0000
0000
0000
0000
0000
0000
0000
0000
1001
2000
0002
0000
0000
,
0000
3003
0000
0220
0000
0000
0000
0000
0330
0000
0000
0011
0020
0002
0000
0000
,
0000
0033
0220
0000
0000
0000
0000
0300
0030
0002
0000
2000
0000
0000
0003
0000
,
0000
3200
0000
0000
0000
0000
0000
0000
0000
0310
0001
0002
0000
0000
0000
0000
,
0020
0000
0000
0000
0003
0000
0030
0200
0020
0000
0000
0000
0300
0000
0000
0032
,
0000
0000
0000
0000
0000
0000
0003
1000
0000
0020
0000
0000
0000
0030
2000
0000
,
0000
0000
0000
0000
0000
3020
0000
0000
0000
0000
0000
0000
0030
0200
0000
0000
,
0000
0000
0000
0300
0002
0000
0000
0000
0000
0000
0000
0000
2003
0000
0000
0000
,
0000
0000
0000
0000
3020
0000
0000
0000
0000
0000
0000
0230
0000
0000
0000
0000
,
0000
0302
0000
0000
0000
0000
0000
0000
2000
0003
0000
0000
0000
0000
0000
3020
,
0000
0000
0000
0000
0000
0000
0200
0030
0000
0000
0000
0000
0000
0300
0000
0002
,
0000
0000
0000
0000
0000
0003
1000
0000
0001
0000
0010
0000
0100
0000
0010
0000
,
0001
0000
0010
0100
0000
0000
0010
0001
0000
0010
0000
0100
0000
0010
0000
0001
,
0000
0010
0100
0000
0000
0010
0001
0000
0010
0000
0100
0010
0000
0000
0001
0010
,
0000
0100
0000
0010
0000
0001
0000
0010
0000
0100
0000
0010
0001
0000
0010
0000
,
0100
0000
0010
0001
0000
0010
0000
0000
0100
1000
0000
0001
0000
0010
0000
0001
,
0000
0001
0000
0001
0000
0001
1000
0000
0001
0000
0000
0001
0000
0001
0000
0010
,
0000
0001
0000
0001
0000
0010
0000
0100
0000
0000
0100
0010
0000
0001
0000
0000
,
0001
0000
1000
0000
0100
0000
0100
0000
2000
0000
0002
0000
3000
0000
0000
0020
,
0000
0000
0000
0003
0000
0000
0200
0000
0000
0000
0000
0000
0030
0000
0000
2000
,
0000
0000
0000
0300
0000
0000
0020
3000
0000
0000
0000
0000
0000
0000
0000
0200
,
0000
0000
0030
0000
0000
0000
0002
0000
0000
0300
0000
0000
0000
2000
0000
0000
,
0003
0000
0000
0000
0000
3002
0000
0000
0000
0000
0000
0000
0000
0020
0000
0003
,
0000
0000
0000
0200
0030
0000
0000
0000
0000
0000
0000
0000
0020
0000
0000
0300
,
0000
0000
0000
0000
0002
0030
0000
0000
0000
0000
0000
2000
0003
0000
0000
0000
,
0000
0000
3100
0000
0000
0100
0000
0000
0000
0100
0000
1000
0000
0100
0000
0010
,
0000
0001
0010
0000
0100
0000
0010
0000
0001
0000
0010
0000
0100
0000
0010
0000
,
0001
0000
0010
0000
0100
0000
1000
0010
0000
0100
0000
0001
0000
1000
0100
0000
,
0000
0020
0000
0000
0000
0030
0010
0000
0000
0010
0000
0000
0010
0000
0000
0000
,
0000
0020
0000
0000
0000
0000
0000
2000
0000
0030
0000
3002
0000
0000
0020
0003
,
0000
0000
0230
0000
0000
0020
0300
0000
0000
0032
0000
0000
0000
0020
0003
0000
,
0000
0000
0230
0000
0000
0000
1000
0300
0000
0002
0000
0020
0000
0000
0000
0000
,
0000
0000
0000
0000
0000
0000
0000
0000
0000
0000
0033
0000
0011
0011
0000
0011
,
0000
0011
0000
0011
0000
0011
0000
0011
0000
0000
0000
0001
1000
0000
0002
0000
,
0000
0000
0000
0000
,
0000
0000
0000
0000
,
0000
0003
1000
0000
0001
0000
0000
0010
0000
0000
0000
0001
0000
0000
0010
0000
,
0000
0100
0000
0020
0000
0000
0000
0032
,
0000
0000
0000
0000
0000
0003
1000
0002
2000
0000
0000
0000
0000
0000
0000
0000
,
0000
0000
0000
0000
,
0000
0000
0000
0000
0000
3003
0000
0000
1000
2002
0000
0000
0000
0000
0000
0000
,
0000
0000
0000
0000
,
0000
0000
0000
0000
0000
0000
0000
0000
0000
0000
0000
0003
0000
0000
0000
0000
,
3000
0000
0001
0000
0000
2000
0000
0000
0000
0000
0000
0000
3000
0010
0000
0000
,
0200
0000
0000
0000
0000
0000
0300
0002
0000
0000
0000
0000
0000
0000
0003
1000
,
0000
0000
0000
0000
0000
0000
0100
0000
0000
0000
0000
0000
0010
0002
0000
0010
,
0000
0000
0000
0000
,
0000
0000
0000
0000
0000
0000
0000
2000
0000
0000
0000
0000
0000
0003
0000
0000
,
0000
0000
0000
0000
,
0000
0000
0000
0000
0000
0000
0000
0000
0000
0000
3000
0000
0000
0000
0000
0001
,
1000
0000
0002
0000
0000
0000
0000
0000
0013
0000
0000
0000
0000
0100
0000
0000
,
0000
0000
0000
0010
0000
0000
0000
0002
0000
0000
0000
0000
0000
0000
0000
0000
,
0020
0003
0000
0000
0000
0000
0030
0000
0010
0100
0000
0000
0000
0000
0000
1001
,
0000
0000
0000
0000
0000
0000
0110
0000
0000
0022
0000
0000
0000
0000
0000
0003
,
0030
0000
0220
0000
0000
0000
0000
0000
0000
0330
0000
0002
0000
0000
0000
0000
,
0000
0000
2000
0003
0000
0000
0000
0000
0000
3000
0100
0000
0000
0000
0000
0000
,
0010
0001
0010
0000
0000
0000
0000
0100
0000
0000
0000
1000
0000
0000
0010
0000
,
0000
0000
0100
0000
0000
0000
0001
0000
0000
0000
0100
0002
0200
0000
0000
0000
,
0000
0000
0000
0000
,
0000
0000
0000
0000
,
0000
0000
0000
0000
0000
0000
0000
0303
0000
1001
0000
0001
0010
0000
0000
0000
,
0000
0000
0120
0000
0000
0000
0000
0000
0000
0000
0030
0001
0000
0000
0000
0000
,
0000
1000
0000
0000
0000
0000
0000
0000
0200
0000
0000
0000
0000
0000
0300
0010
,
0000
0000
0000
0002
0000
0000
0000
0000
0000
0000
2000
0003
0000
0000
0000
0000
,
0000
0000
0020
3000
0000
0000
0000
0000
0000
0000
0000
0200
0000
0000
0000
0000
,
0000
0000
0000
0000
,
0000
0000
0000
0000
0000
0000
0330
0010
,
0000
0010
0020
0000
0000
0000
0000
0000
,
0000
0000
0000
1000
0000
0000
0000
0000
,
0000
0000
2000
0000
0000
0000
0000
0000
0000
3000
0000
0000
0000
0000
0000
0000
,
0000
2000
0000
0000
0000
0000
0000
0000
0000
0000
0000
0000
3000
0000
0000
2000
,
0000
0000
0000
0000
0000
0000
0000
0000
3000
0000
0000
0000
0000
1000
0000
0000
,
0000
0000
0000
2000
0000
0000
0000
0000
0000
0000
0000
0000
0000
0000
0000
3000
,
0200
0000
0000
0000
,
0000
0300
0000
0000
,
2000
0000
0000
0000
0000
0000
0000
0000
0000
0000
0000
0000
0000
0000
3000
0002
,
0000
0000
0000
0000
0000
0000
0000
0000
0000
0000
0000
0000
0000
0000
0000
0200
,
0003
0000
0000
0000
0000
0000
0000
2300
,
0000
0000
0000
0000
0000
0000
0000
0000
3030
0000
0000
1001
0000
0000
0000
0000
,
0000
0022
0000
0000
0000
0000
0000
0000
0000
0000
0003
0030
0000
0000
0200
0020
,
0000
0000
0000
0000
0000
0000
0000
0300
0030
0001
0000
0000
0010
0000
0000
0000
,
0100
0000
0000
1000
0000
0000
0000
0010
0000
0000
0100
0000
0000
0000
0001
0000
,
0000
0001
0000
0000
1000
0001
0000
0001
0000
0000
0000
0010
0000
0001
0010
0000
,
0000
0000
0001
0000
0010
0001
0000
0000
0000
0010
0000
0100
0010
0000
0000
0001
,
0000
1000
0000
0000
0000
0000
0001
0000
0000
0000
0010
0000
0000
0000
0200
0000
,
0000
0000
0000
0000
0000
0000
0000
0000
0000
0000
0000
0020
0000
0000
0000
0000
,
0000
0000
0000
0000
0000
0000
0300
0000
0002
0000
0000
0000
0000
0000
0000
0030
,
0000
0000
0000
0000
0000
0000
2000
0000
0000
0000
0000
0000
0000
0003
0000
0000
,
0000
0000
0000
0000
0000
3200
0000
0000
0000
0000
0000
0000
0000
0000
0000
0000
,
0000
0000
0000
0020
0000
0000
0000
0000
0000
0000
0300
0000
0000
0000
0000
0000
,
0001
0002
0000
0000
0030
0000
0000
0000
0000
0000
0000
0000
0000
0000
0000
2000
,
0000
0000
0000
0000
0000
0000
0000
0000
0000
0000
3000
0000
0000
2000
0000
0000
,
0000
0000
0000
0000
3000
2000
0000
0000
,
0000
0000
0000
0000
0000
0000
3000
0000
0000
2000
0000
0000
0000
0000
0000
0000
,
0000
0000
0000
0000
0000
3000
0000
0000
1000
0000
0000
0000
0000
0000
1000
0000
,
0000
1000
0000
1000
,
0003
0000
0000
0000
0001
0000
0000
1000
0000
0000
0100
0000
0000
0010
0000
0000
,
0000
0001
0000
0000
0020
0000
0000
0000
0200
0000
0000
0000
0000
0030
0000
0000
,
2000
0000
0000
0000
0000
0000
0000
0000
0000
3000
0000
0000
2000
0000
0000
0000
,
0000
0000
0000
0000
0000
0000
3000
0000
0000
0000
0000
0000
0000
0001
0000
0000
,
0000
0000
0000
0000
0000
0000
0000
0020
0000
0000
0000
0000
0000
0000
0000
0000
,
0000
0030
0000
2000
0000
0000
0000
0000
,
3000
0002
0000
0000
0000
0000
0000
0000
,
0003
0000
0020
0000
0000
0000
0000
0000
0000
0000
0000
0000
0000
0030
0000
0000
,
2000
0000
0000
0000
0000
0000
0000
0000
0000
0000
3000
0000
0000
0000
0000
0020
,
0000
0000
0000
0000
0000
0000
0000
0000
0000
0000
0030
0002
0000
0000
0000
0000
,
0000
0000
0000
0000
0000
0000
0000
0000
0000
2000
0003
0000
0000
0000
0000
0000
,
0000
0000
0000
0000
0000
0000
0000
3010
0000
0000
0000
0000
0000
2000
0000
0000
,
0000
0002
0000
0000
,
0000
0000
0000
0000
0000
0000
0303
3000
0001
0010
0000
0001
0000
0011
0000
0010
,
0000
0000
0010
0000
0100
0000
0010
0101
0000
0000
1001
0000
0000
1000
0010
0000
,
0001
0010
1100
0000
0000
0002
0000
0000
,
0000
0000
0000
0000
,
0000
0000
0000
0003
0000
1000
0000
0010
,
0000
0000
0000
0000
0000
0000
1000
0000
1000
0000
0000
0010
0000
0000
1000
0000
,
0000
0010
1000
0000
0000
0001
0000
0000
0000
0000
0010
0000
0000
0000
0001
0000
,
0010
0001
0000
0010
0000
0000
0000
0100
0000
0000
0000
1000
0000
0000
0001
0020
,
0000
0000
0000
0000
0000
0031
0000
0000
0000
0000
0000
0010
0000
0000
0100
0000
,
0000
0000
0000
0000
0000
0000
0000
0000
0000
0000
0000
0021
0000
0000
0000
0000
,
0000
0000
0000
0000
,
0000
0000
0030
0000
,
0000
0000
0000
0000
0001
0000
1001
0000
0000
0000
0000
0011
0000
0000
0010
0100
,
0000
0000
0000
0010
0001
0000
0010
0000
0000
0000
0100
0010
0000
0100
0000
0000
,
0000
0010
0000
0001
0010
0000
0000
0001
0010
0000
0001
0000
0000
0000
0000
0100
,
0000
0010
0000
0000
0000
0001
0010
0000
0001
0000
0000
0000
1000
0100
0000
0010
,
0000
0000
0000
0001
0010
0000
0001
0000
0000
0000
1000
0100
0000
0010
0000
0000
,
0000
0001
0010
0000
0100
0001
0000
1000
0000
0100
0000
0010
0000
0000
0000
0001
,
0010
0000
0001
0000
0000
1000
0000
0100
0000
0010
0000
0001
0000
0010
0000
0001
,
0000
0000
1000
0000
0100
0000
0010
0000
0001
0010
0000
0100
0000
1000
0001
0000
,
0010
0000
0100
0000
0010
0001
0000
0000
1100
0000
0000
0010
0001
0000
0010
0000
,
0100
0000
1000
0001
0000
0010
0000
0100
0010
0000
0001
0000
2000
0000
0000
0101
,
0000
0000
0000
0000
0000
3000
0000
0011
0000
0000
0000
0000
0110
0000
0000
0000
,
0022
0000
0000
0000
0033
0220
0000
0000
,
0300
0030
0000
0002
0000
0000
0000
0000
0000
0000
1003
2000
0000
0000
0000
0000
,
0000
0000
3010
0000
0000
0000
0000
0100
0000
0001
0100
0000
0000
0000
0001
0000
,
0000
1000
0000
0000
0000
0100
0000
0000
0010
0000
0001
0000
0000
0000
0010
0000
,
0000
0100
0000
0020
0200
0000
0000
0000
0000
0000
0000
0000
0000
0000
0000
0000
,
0000
0000
0000
0000
,
0000
0000
0000
0000
0000
0000
0000
0000
0300
0030
0000
0001
1000
0001
0000
0000
,
0000
0000
0000
0001
0000
0010
0000
0000
0001
0000
0000
0000
0000
0010
0001
0000
,
0010
0000
0000
0100
0000
1000
0000
0100
0000
0000
0010
0000
0001
0000
0010
0000
,
0000
0100
0000
1000
0000
0100
0000
0010
0000
0000
0001
0010
0000
0000
0100
0000
,
1000
0000
0000
0000
0020
0000
0000
0000
0200
0000
0000
0000
0000
0000
0000
0002
,
0000
0000
0000
0000
,
0000
0000
0000
0000
,
0000
0000
0000
0000
0000
0000
0000
0000
0000
0000
0000
0000
0300
0030
0003
0000
,
0000
0000
0000
0000
1000
0001
0000
0000
0000
0000
0000
0000
0001
0010
0000
0001
,
0010
0000
0000
0100
0000
0000
0000
0000
0010
0000
0000
0001
0000
0000
0010
0000
,
0000
0000
0000
0000
0000
0000
0000
0100
0000
0000
0000
0000
0000
1000
0000
0000
,
0010
0000
0000
0100
0000
0000
0000
0001
0000
0000
0000
0000
0000
1000
0000
0000
,
0100
0000
0000
0020
0000
0000
0000
0000
0000
0000
0030
0001
0000
0000
0010
0000
,
0000
0000
0200
0000
0000
0000
0000
0000
0000
1300
0000
0000
0000
0020
0000
0000
,
0200
0000
0000
0000
0000
0030
0000
0301
0000
0000
1000
0000
0000
0001
0000
0000
,
0000
0000
0000
0010
0000
0000
0000
0000
0000
0020
0000
0000
0000
0000
0000
0030
,
0001
0000
1000
0000
0000
0000
0100
0000
0000
0000
0000
0000
0000
0010
0000
0000
,
0000
0001
0000
0000
0010
0000
0000
0100
0000
1000
0000
0000
0010
0000
0000
0100
,
0000
0000
0001
0000
0000
1000
0000
0000
0100
0000
0000
0010
0000
0001
0000
0010
,
0001
0000
0000
1000
0000
0000
0100
0000
0000
0010
0000
0000
0001
0010
0001
0000
,
0000
1000
0000
0000
0100
0000
0000
0010
0000
0001
0000
0010
0001
0000
0000
1000
,
0000
0010
0000
0000
0100
0000
0000
0001
0000
1000
0001
0000
0010
0000
0000
0000
,
0100
0000
0000
0010
0000
0001
0000
0000
0010
0000
0001
0000
0010
0000
0000
0100
,
0000
0000
1000
0000
0010
0000
0000
0100
0000
0002
0000
0000
0000
0000
2000
0000
,
0000
0000
0000
0000
,
0000
0000
0000
0000
0000
0000
0000
0000
0000
0000
0000
0003
3000
0000
0000
0001
,
0000
0000
0000
0000
1000
0000
0000
0000
0010
0000
0000
0100
0000
0001
0000
0000
,
1000
0000
0000
0100
0000
0000
0100
0000
0000
0100
0000
0000
0000
1100
0000
0000
,
0100
0000
0000
0000
1100
0000
0000
1000
0000
0000
0000
1100
0000
0000
1100
0000
,
0000
1100
0000
0000
0100
1000
0000
0100
2200
0000
0000
0000
0000
0000
0000
3300
,
0000
0000
0000
0000
0000
0001
0000
0100
0000
0001
0000
0010
0001
0000
0000
0000
,
0000
0010
0000
0001
0010
0000
0001
0000
0010
0000
0100
0010
0000
0001
0000
1000
,
0100
0000
0000
0011
0000
0000
0010
0100
0000
1000
0001
0000
0000
0010
0100
0000
,
0010
0001
0000
1000
0100
0000
0000
0011
0000
0000
0010
0100
0000
0000
1001
0000
,
0000
0000
0110
0000
0000
0010
0001
0000
0000
0100
1000
0000
0000
0001
0010
0000
,
0000
0100
0010
0000
0001
0000
1000
0000
0100
0000
0000
0010
0000
0001
0000
0010
,
0000
0100
0010
0000
0001
0000
1000
0000
0100
0020
0000
0000
0000
0000
0000
0000
,
0002
0000
0000
0000
0000
0000
0000
0003
0030
0000
0001
1000
0000
0001
0000
0010
,
0000
0000
0001
0000
0010
0000
0001
0010
0000
0000
0001
0010
0000
0001
0000
0010
,
0000
0000
0100
0000
0010
0100
0000
0010
0000
0000
0000
1001
0000
0000
0001
0010
,
0000
0000
0000
0000
0000
0010
0000
0001
0000
0000
0010
0000
0000
0100
0010
0000
,
0000
0000
0000
0001
1000
0000
0001
0000
0000
0010
0000
0100
0000
0010
0000
0000
,
0000
0000
0000
0001
0000
0000
0000
1000
0000
0000
0000
0000
0000
0200
0000
0000
,
0000
0000
0000
0010
0000
0300
0000
0000
0000
0200
0022
0000
0000
0000
0000
0000
,
0000
0000
0000
0000
,
0000
0000
0333
0000
0000
2000
0202
0000
0000
0000
0000
0000
0000
0000
0000
0000
,
0000
0000
0000
0000
0000
0000
0000
0000
0000
0000
0000
3303
0000
0000
0000
0101
,
0010
0000
0101
0010
0000
0101
0000
0010
0001
0100
0000
1000
0000
0001
0000
0010
,
0000
0001
0010
0100
1000
0001
0010
0100
,
0010
0000
0001
0000
0010
0000
0000
0100
0000
0010
0000
0001
0100
0010
0000
0000
,
0000
2202
0000
0000
,
0000
0000
0000
0000
0000
0000
0000
0000
0303
3000
0000
0000
0000
0000
0202
0020
,
0000
0000
0000
0000
,
0000
0000
0333
0000
0000
0000
0000
0000
2000
0202
0000
0000
0000
0000
0000
0000
,
0000
0000
0000
0000
0000
0000
0000
0000
0000
0000
0000
0000
3300
0000
0000
0003
,
0000
0000
0000
0002
0220
0000
0000
0000
0000
0000
0000
0000
0000
0030
0303
0000
,
0000
0001
0000
0000
0000
1000
0000
0000
0010
0000
0000
1000
0010
0000
0000
2020
,
0000
0000
0000
0000
0000
0000
0000
0000
0000
0000
0000
0000
3000
0031
0000
0000
,
0000
0000
0202
0000
,
0000
0000
0000
0000
0000
0000
0000
0000
0000
0000
0303
0000
0000
0000
0001
0010
,
0000
0002
0000
0000
0000
0000
0000
0000
0000
0010
0000
0003
0000
0000
0100
0000
,
0000
0010
0000
0000
0001
0000
0000
0000
0010
0000
0000
0100
0000
0010
0000
0000
,
0001
0000
0000
0000
0010
0000
0100
0000
0000
0000
0010
0000
0000
0100
0000
0000
,
0010
0000
0000
0000
0000
0000
0000
0222
0000
0000
0000
0000
0000
0000
0000
0000
,
0000
0000
0000
0000
0000
0000
0000
0000
0000
0000
0000
0000
0000
0333
0000
0000
,
2002
0200
0000
0000
0000
0000
0000
0000
0000
0000
0000
0000
0000
0000
0000
0000
,
0000
0000
0000
0000
3303
0000
0000
0000
0000
0000
0202
0020
0000
0000
0000
0000
,
0000
0000
0000
0000
0000
0000
0000
0303
0030
0000
0000
0001
0000
1000
0000
0001
,
0000
0010
0000
0001
0000
0000
0000
0010
0000
0000
0000
0100
0000
0000
0010
0000
,
0000
0000
0001
0000
0000
0010
0000
0000
0000
0100
0000
0000
0010
0000
0000
0000
,
0222
0000
0000
0000
,
0000
0000
0000
0030
0303
0000
0000
0000
0000
2202
0000
0000
0000
0000
0000
0000
,
0000
0000
0000
0000
0000
0000
0000
0000
0000
0000
0000
0000
0000
0000
0000
3300
,
0003
0000
0000
0000
0000
0222
0000
0000
0000
0000
0000
0000
0000
0000
0000
0000
,
0000
0000
0000
0000
,
0000
0000
0000
0000
0000
0000
0000
0000
0000
0000
0000
0000
0000
0000
0000
0000
0000
0000
0000
0000
0000
0000
0000
0000
0000
0000
0000
0000
0000
0000
0000
0000
0000
0000
0000
0000
0000
0000
0000
0000
0000
0000
0000
0000
0000
0000
0000
0000
0000
0000
0000
0000
0000
0000
0000
0000
0000
0000
0000
0000
0000
0000
0000
0000
0000
0000
0000
0000
0000
0000
0000
0000
0000
0000
0000
0000
0000
0000
0000
0000
0000
0000
0000
0000
0000
0000
0000
0000
0000
0000
0000
0000
0000
0000
0000
0000
0000
0000
0333
0000
0000
0000
0000
0000
0000
0000
0000
0000
0000
0000
0000
0000
0000
0000
0000
0000
0000
0000
0000
0000
0000
0000
0000
0000
0000
0000
0000
0000
0000
0000
0000
0000
0000
0000
0000
0000
0000
0000
0000
0000
0000
0000
0000
0000
0000
0000
0000
0000
0000
0000
0000
0000
0000
0000
0000
0000
0000
0000
0000
0000
0000
0000
0000
0000
0000
0000
0000
0000
0000
0000
0000
0000
0000
0000
0000
0000
0000
0000
0000
0000
0000
0000
0000
0000
0000
0000
0000
0000
0000
0000
0000
0000
;
